<?xml version="1.0" standalone="no"?>
<!DOCTYPE svg PUBLIC "-//W3C//DTD SVG 1.1//EN" "http://www.w3.org/Graphics/SVG/1.1/DTD/svg11.dtd" >
<svg xmlns="http://www.w3.org/2000/svg" xmlns:xlink="http://www.w3.org/1999/xlink" version="1.1">
<metadata>
Created by FontForge 20161013 at Fri Dec 22 23:03:07 2006
 By ,,,
Copyright Hans Reichel, 1996. Published by FontShop International FontFont release 17
</metadata>
<defs>
<font id="Dax-Light" horiz-adv-x="510" >
  <font-face 
    font-family="Dax Light"
    font-weight="300"
    font-stretch="normal"
    units-per-em="1000"
    panose-1="0 0 0 0 0 0 0 0 0 0"
    ascent="785"
    descent="-215"
    x-height="539"
    cap-height="688"
    bbox="-115 -225 1096.03 893"
    underline-thickness="50"
    underline-position="-200"
    unicode-range="U+0020-FB02"
  />
<missing-glyph horiz-adv-x="1000" 
 />
    <glyph glyph-name=".notdef" horiz-adv-x="1000" 
 />
    <glyph glyph-name=".null" horiz-adv-x="0" 
 />
    <glyph glyph-name="nonmarkingreturn" horiz-adv-x="333" 
 />
    <glyph glyph-name="space" unicode=" " horiz-adv-x="280" 
 />
    <glyph glyph-name="exclam" unicode="!" horiz-adv-x="269" 
d="M178 688l-12 -473h-39l-12 473h63zM189 38q0 -17 -12.5 -29.5t-29.5 -12.5t-29.5 12.5t-12.5 29.5q0 18 12.5 30.5t29.5 12.5t29.5 -12.5t12.5 -30.5z" />
    <glyph glyph-name="quotedbl" unicode="&#x22;" horiz-adv-x="355" 
d="M280 681l-17 -236h-28l-16 236q12 15 31 15q18 0 30 -15zM136 681l-17 -236h-28l-16 236q12 15 30 15q19 0 31 -15z" />
    <glyph glyph-name="numbersign" unicode="#" 
d="M486 439h-118l-32 -172h113v-30h-119l-41 -237h-34l41 237h-126l-44 -237h-33l42 236h-111v31h116l32 172h-111v30h117l38 219h35l-39 -219h127l38 219h35l-39 -219h113v-30zM333 439h-127l-31 -172h126z" />
    <glyph glyph-name="dollar" unicode="$" 
d="M424 188q0 -81 -48.5 -134.5t-125.5 -61.5l8 -118h-42l8 117q-90 1 -144 37l17 37q54 -33 123 -33q67 0 108 42.5t41 111.5q0 53 -31 88t-102 60q-150 54 -150 181q0 71 45 123t119 59l-8 112h40l-8 -112q75 -1 123 -35l-15 -35q-53 32 -112 32q-61 0 -95.5 -39
t-34.5 -104q0 -31 9.5 -54.5t30 -39.5t38.5 -25t48 -20q158 -58 158 -189z" />
    <glyph glyph-name="percent" unicode="%" horiz-adv-x="837" 
d="M762 224q2 -235 -126 -235t-126 235q0 233 126 233q124 0 126 -233zM549 684l-232 -691l-32 11l233 690zM327 466q0 -235 -126 -235t-126 235q0 233 126 233t126 -233zM722 224q3 207 -86 207q-88 0 -85 -207q0 -205 85 -205q28 0 46.5 19.5t26.5 55.5t10.5 63.5
t2.5 66.5zM286 466q3 208 -85 208q-86 0 -86 -208q0 -204 86 -204q85 0 85 204z" />
    <glyph glyph-name="ampersand" unicode="&#x26;" horiz-adv-x="604" 
d="M579 464q-48 -23 -112 -40v-396q-54 -38 -166 -38q-110 0 -176 53t-66 142q0 74 50.5 128.5t141.5 79.5v2q-70 16 -109 56t-39 99q0 64 47.5 106t127.5 42q72 0 126 -34l-15 -32q-44 29 -103 29q-65 0 -96.5 -29.5t-31.5 -82.5q0 -57 42 -91t103 -34q120 0 261 78z
M414 45v364q-163 -39 -229.5 -86t-66.5 -136q0 -74 48 -117t136 -43q72 0 112 18z" />
    <glyph glyph-name="quotesingle" unicode="'" horiz-adv-x="212" 
d="M137 681l-17 -236h-29l-16 236q12 15 31 15t31 -15z" />
    <glyph glyph-name="parenleft" unicode="(" horiz-adv-x="345" 
d="M305 -206l-28 -18q-202 269 -202 510q0 125 49 247.5t153 261.5l28 -18q-169 -239 -169 -491q0 -253 169 -492z" />
    <glyph glyph-name="parenright" unicode=")" horiz-adv-x="345" 
d="M270 286q0 -241 -202 -510l-28 18q169 239 169 492q0 252 -169 491l28 18q104 -139 153 -261.5t49 -247.5z" />
    <glyph glyph-name="asterisk" unicode="*" horiz-adv-x="402" 
d="M347 681q0 -15 -10.5 -25.5t-25.5 -10.5q-14 0 -24.5 10.5t-10.5 25.5q0 14 10.5 24.5t24.5 10.5q15 0 25.5 -10.5t10.5 -24.5zM237 760q0 -15 -10.5 -25t-25.5 -10q-14 0 -24.5 10t-10.5 25t10.5 25.5t24.5 10.5q15 0 25.5 -10.5t10.5 -25.5zM233 645q0 -13 -9.5 -22.5
t-22.5 -9.5t-22.5 9.5t-9.5 22.5t9.5 22.5t22.5 9.5t22.5 -9.5t9.5 -22.5zM311 554q0 -15 -10.5 -25.5t-25.5 -10.5q-14 0 -24.5 10.5t-10.5 25.5q0 14 10.5 24.5t24.5 10.5q15 0 25.5 -10.5t10.5 -24.5zM126 681q0 -14 -10.5 -24.5t-24.5 -10.5q-15 0 -25.5 10.5
t-10.5 24.5q0 15 10.5 25.5t25.5 10.5q14 0 24.5 -10.5t10.5 -25.5zM161 554q0 -15 -10.5 -25t-24.5 -10q-15 0 -25.5 10t-10.5 25t10.5 25.5t25.5 10.5q14 0 24.5 -10.5t10.5 -25.5z" />
    <glyph glyph-name="plus" unicode="+" 
d="M442 315h-167v-184h-41v184h-166v41h166v183h41v-183h167v-41z" />
    <glyph glyph-name="comma" unicode="," horiz-adv-x="241" 
d="M166 57l-116 -226h-32l81 226q17 15 43 15q20 0 24 -15z" />
    <glyph glyph-name="hyphen" unicode="-" horiz-adv-x="338" 
d="M273 314h-208v48h208v-48z" />
    <glyph glyph-name="period" unicode="." horiz-adv-x="234" 
d="M159 40q0 -17 -12.5 -29.5t-29.5 -12.5t-29.5 12.5t-12.5 29.5t12.5 29.5t29.5 12.5t29.5 -12.5t12.5 -29.5z" />
    <glyph glyph-name="slash" unicode="/" horiz-adv-x="554" 
d="M534 777l-476 -1002l-38 19l475 1001z" />
    <glyph glyph-name="zero" unicode="0" 
d="M450 344q0 -64 -8.5 -121t-29 -112.5t-60.5 -88t-97 -32.5t-97 32.5t-60.5 88t-29 112.5t-8.5 121t8.5 121t29 112.5t60.5 88t97 32.5t97 -32.5t60.5 -88t29 -112.5t8.5 -121zM397 344q0 54 -5 102t-18.5 101.5t-44 85.5t-74.5 32t-74.5 -32t-44 -85.5t-18.5 -101.5
t-5 -102t5 -101t18.5 -100t44 -84t74.5 -31t74.5 31t44 84t18.5 100t5 101z" />
    <glyph glyph-name="one" unicode="1" 
d="M334 0h-54v604q-31 -20 -85 -35.5t-98 -20.5l-7 33q154 21 209 107h35v-688z" />
    <glyph glyph-name="two" unicode="2" 
d="M430 0h-384l246 348q68 95 68 171q0 137 -157 137q-69 0 -122 -30l-17 36q67 36 162 36q82 0 138 -47.5t56 -129.5q0 -77 -84 -193l-207 -283h301v-45z" />
    <glyph glyph-name="three" unicode="3" 
d="M426 194q0 -92 -61 -148t-152 -56q-104 0 -161 34l16 38q51 -31 134 -31q76 0 121.5 43.5t45.5 119.5q0 43 -15.5 75t-38.5 49t-53.5 27t-55 12t-48.5 0v35q80 6 131.5 46t51.5 104q0 60 -37 88t-91 28q-82 0 -129 -28l-17 34q62 34 151 34q73 0 126 -39.5t53 -109.5
q0 -36 -15 -67t-39 -50t-44 -30t-39 -17v-2q30 -6 56.5 -18.5t52.5 -34t41.5 -56.5t15.5 -80z" />
    <glyph glyph-name="four" unicode="4" 
d="M450 167h-58v-167h-48v167h-285v40l284 481h49v-485h58v-36zM345 626h-2q-22 -42 -52 -94l-190 -329h243v324z" />
    <glyph glyph-name="five" unicode="5" 
d="M434 195q0 -84 -61 -144.5t-153 -60.5q-100 0 -158 35l15 37q58 -32 137 -32q61 0 112 43.5t51 119.5q0 97 -67.5 144t-213.5 24l24 327h301v-45h-262l-17 -244q139 20 215.5 -38t76.5 -166z" />
    <glyph glyph-name="six" unicode="6" 
d="M452 197q0 -84 -49.5 -145.5t-143.5 -61.5t-145.5 66.5t-51.5 189.5q0 75 17.5 140t48 110.5t64 81t72.5 59t66 36t52 20.5l15 -36q-203 -73 -269 -274q54 22 109 22q97 0 156 -54.5t59 -153.5zM399 198q0 173 -167 173q-62 0 -109 -21q-9 -44 -9 -104q0 -103 36.5 -160
t110.5 -57q69 0 103.5 49t34.5 120z" />
    <glyph glyph-name="seven" unicode="7" 
d="M466 688l-95 -216q-122 -278 -178 -472h-70l278 643h-332v45h397z" />
    <glyph glyph-name="eight" unicode="8" 
d="M450 158q0 -72 -56 -120t-139 -48q-79 0 -137 45.5t-58 122.5q0 59 35.5 105.5t122.5 96.5q-76 42 -106 82.5t-30 96.5q0 69 51 114t122 45t122 -45t51 -114q0 -55 -30 -95.5t-105 -81.5q87 -50 122 -97.5t35 -106.5zM380 538q0 54 -35 89t-90 35t-90 -34.5t-35 -88.5
q0 -51 27 -84t100 -74q71 39 97 73t26 84zM398 158q0 56 -29 95.5t-115 87.5q-86 -48 -115 -87t-29 -95q0 -59 42.5 -94.5t102.5 -35.5q62 0 102.5 36.5t40.5 92.5z" />
    <glyph glyph-name="nine" unicode="9" 
d="M448 437q0 -75 -17.5 -140t-48 -110.5t-64 -81t-72.5 -59t-66 -36t-52 -20.5l-15 36q204 73 268 274q-52 -22 -109 -22q-96 0 -155 54.5t-59 153.5q0 84 49.5 145.5t143.5 61.5t145.5 -66.5t51.5 -189.5zM396 438q0 103 -37 160.5t-110 57.5q-69 0 -103.5 -49.5
t-34.5 -120.5q0 -173 167 -173q62 0 109 21q9 45 9 104z" />
    <glyph glyph-name="colon" unicode=":" horiz-adv-x="234" 
d="M159 344q0 -17 -12.5 -29.5t-29.5 -12.5t-29.5 12.5t-12.5 29.5t12.5 29.5t29.5 12.5t29.5 -12.5t12.5 -29.5zM159 40q0 -17 -12.5 -29.5t-29.5 -12.5t-29.5 12.5t-12.5 29.5t12.5 29.5t29.5 12.5t29.5 -12.5t12.5 -29.5z" />
    <glyph glyph-name="semicolon" unicode=";" horiz-adv-x="241" 
d="M166 344q0 -17 -12.5 -29.5t-29.5 -12.5q-18 0 -30.5 12.5t-12.5 29.5t12.5 29.5t29.5 12.5q18 0 30.5 -12.5t12.5 -29.5zM166 57l-116 -226h-32l81 226q18 18 41 18q11 0 18 -5.5t8 -12.5z" />
    <glyph glyph-name="less" unicode="&#x3c;" 
d="M442 151l-374 168v40l374 169v-45l-327 -144l327 -144v-44z" />
    <glyph glyph-name="equal" unicode="=" 
d="M442 396l-374 -1v41h374v-40zM442 233h-374v41h374v-41z" />
    <glyph glyph-name="greater" unicode="&#x3e;" 
d="M442 319l-374 -168v44l327 144l-327 144v45l374 -169v-40z" />
    <glyph glyph-name="question" unicode="?" horiz-adv-x="366" 
d="M351 538q0 -60 -46 -103t-97 -57l-11 -163h-39l-13 182q24 6 48 16.5t48.5 27t39.5 42t15 55.5q0 53 -32.5 84.5t-94.5 31.5q-64 0 -106 -27l-18 32q54 36 130 36q80 0 128 -42.5t48 -114.5zM220 39q0 -17 -12.5 -29.5t-29.5 -12.5t-29.5 12.5t-12.5 29.5t12.5 29.5
t29.5 12.5t29.5 -12.5t12.5 -29.5z" />
    <glyph glyph-name="at" unicode="@" horiz-adv-x="871" 
d="M797 413q0 -49 -14 -107.5t-39.5 -113.5t-68 -91.5t-91.5 -36.5q-66 0 -67 98q-53 -96 -159 -96q-54 0 -82.5 43.5t-28.5 108.5q0 55 22 116.5t68 109t103 47.5q48 0 77.5 -29.5t40.5 -74.5l17 87h38l-30 -141q-28 -130 -28 -167q0 -42 10.5 -57t36.5 -15q59 0 112 109.5
t53 209.5q0 119 -70 190t-184 71t-208.5 -65t-146.5 -169.5t-52 -221.5q0 -160 90 -245t243 -85q107 0 180.5 34t145.5 113l15 -19q-68 -80 -148 -117t-193 -37q-168 0 -266.5 93t-98.5 264q0 126 58.5 236.5t160.5 177t221 66.5q126 0 204.5 -76.5t78.5 -209.5zM541 333
q2 61 -27.5 95t-67.5 34q-50 0 -87.5 -44t-53.5 -97.5t-16 -99.5q0 -51 23 -88t70 -37q49 0 87 43t54.5 95.5t17.5 98.5z" />
    <glyph glyph-name="A" unicode="A" horiz-adv-x="571" 
d="M545 0h-59l-76 235h-252l-78 -235h-54l238 688h45zM398 272l-90 278q-8 25 -13 46t-7 30l-1 8h-2q-5 -26 -24 -83l-91 -279h228z" />
    <glyph glyph-name="B" unicode="B" horiz-adv-x="543" 
d="M490 184q0 -99 -65.5 -146.5t-169.5 -47.5q-108 0 -172 37v634q60 37 163 37q100 0 157.5 -46t57.5 -121q0 -71 -41.5 -112.5t-98.5 -51.5v-2q59 -8 114 -57t55 -124zM406 526q0 137 -163 137q-60 0 -107 -17v-267h53q117 0 167 36t50 111zM432 179q0 90 -58 130t-185 40
h-53v-301q51 -19 114 -19q81 0 131.5 36t50.5 114z" />
    <glyph glyph-name="C" unicode="C" horiz-adv-x="472" 
d="M437 27q-45 -37 -127 -37q-113 0 -182 100.5t-69 253.5q0 151 68.5 252.5t181.5 101.5q78 0 128 -36l-17 -34q-42 30 -103 30q-69 0 -115 -46.5t-64.5 -114.5t-18.5 -153q0 -134 49.5 -223t147.5 -89q56 0 104 29z" />
    <glyph glyph-name="D" unicode="D" horiz-adv-x="583" 
d="M524 353q0 -169 -69 -266t-202 -97q-116 0 -170 36v635q62 37 168 37q129 0 201 -90.5t72 -254.5zM464 353q0 151 -55.5 230t-165.5 79q-62 0 -103 -16v-598q39 -17 105 -17q115 0 167 82.5t52 239.5z" />
    <glyph glyph-name="E" unicode="E" horiz-adv-x="433" 
d="M386 0h-303v688h303v-39h-246v-272h223v-39h-223v-299h246v-39z" />
    <glyph glyph-name="F" unicode="F" horiz-adv-x="425" 
d="M384 649h-244v-272h222v-39h-222v-338h-57v688h301v-39z" />
    <glyph glyph-name="G" unicode="G" horiz-adv-x="577" 
d="M500 27q-62 -37 -164 -37q-52 0 -100 21t-88.5 63t-64.5 113t-24 162q0 87 23.5 155.5t63 110t87.5 62.5t101 21q100 0 150 -34l-17 -35q-51 29 -128 29q-104 0 -162 -79.5t-58 -238.5q0 -145 63 -228t157 -83q66 0 104 20v289h-134v39h191v-350z" />
    <glyph glyph-name="H" unicode="H" horiz-adv-x="581" 
d="M498 0h-57v338h-301v-338h-57v688h57v-311h301v311h57v-688z" />
    <glyph glyph-name="I" unicode="I" horiz-adv-x="231" 
d="M144 0h-57v688h57v-688z" />
    <glyph glyph-name="J" unicode="J" horiz-adv-x="231" 
d="M144 19q0 -97 -56 -160t-135 -79v41q58 19 96 70t38 128v669h57v-669z" />
    <glyph glyph-name="K" unicode="K" horiz-adv-x="483" 
d="M461 0h-66l-251 363h-2v-363h-55v688h55v-323h2l246 323h61l-256 -322z" />
    <glyph glyph-name="L" unicode="L" horiz-adv-x="400" 
d="M367 0h-280v688h57v-649h223v-39z" />
    <glyph glyph-name="M" unicode="M" horiz-adv-x="774" 
d="M714 0h-54l-63 575l-5 79h-2q-7 -37 -19 -79l-160 -575h-51l-159 575l-18 79h-2q-2 -38 -6 -78l-64 -576h-51l86 688h67l154 -554l18 -78h2q4 32 17 78l156 554h67z" />
    <glyph glyph-name="N" unicode="N" horiz-adv-x="644" 
d="M561 0h-58l-325 559l-48 90h-2q3 -45 3 -91v-558h-48v688h73l317 -548l41 -77h3q-4 33 -4 80v545h48v-688z" />
    <glyph glyph-name="O" unicode="O" horiz-adv-x="595" 
d="M536 344q0 -160 -58.5 -257t-180.5 -97q-62 0 -109 27t-74.5 76t-41 111.5t-13.5 139.5q0 158 58.5 256t179.5 98q122 0 180.5 -98t58.5 -256zM479 345q0 62 -8.5 114t-27.5 99t-56.5 74t-89.5 27t-89 -27t-56 -74t-27.5 -99t-8.5 -114q0 -312 181 -312q182 0 182 312z
" />
    <glyph glyph-name="P" unicode="P" horiz-adv-x="501" 
d="M456 496q0 -97 -70.5 -154.5t-211.5 -45.5l-35 3v-299h-56v661q61 37 153 37q108 0 164 -54t56 -148zM400 498q0 164 -170 164q-54 0 -91 -16v-310l33 -3q119 -11 173.5 34.5t54.5 130.5z" />
    <glyph glyph-name="Q" unicode="Q" horiz-adv-x="595" 
d="M536 346q0 -245 -137 -331l125 -159l-45 -41l-110 189q-31 -10 -71 -10q-122 0 -180.5 97t-58.5 255q0 102 23 178.5t78 125t138 48.5t137.5 -48.5t77.5 -125t23 -178.5zM480 348q0 311 -182 311t-182 -311q0 -313 182 -313t182 313z" />
    <glyph glyph-name="R" unicode="R" horiz-adv-x="517" 
d="M469 0h-67l-258 330h-3v-330h-55v662q56 36 153 36q105 0 161 -52t56 -147q0 -97 -62 -148t-172 -47v-2zM400 498q0 165 -165 165q-59 0 -94 -18v-305q26 -8 71 -8q188 0 188 166z" />
    <glyph glyph-name="S" unicode="S" horiz-adv-x="456" 
d="M396 188q0 -88 -55.5 -143t-141.5 -55q-93 0 -150 37l18 40q51 -33 124 -33q67 0 107.5 41.5t40.5 110.5q0 52 -30.5 86t-102.5 61q-150 56 -150 182q0 76 50 129.5t132 53.5q81 0 131 -36l-16 -37q-50 33 -112 33q-61 0 -95 -38.5t-34 -103.5q0 -55 33.5 -86t91.5 -53
q159 -58 159 -189z" />
    <glyph glyph-name="T" unicode="T" horiz-adv-x="407" 
d="M377 649h-145v-649h-57v649h-145v39h347v-39z" />
    <glyph glyph-name="U" unicode="U" horiz-adv-x="570" 
d="M487 193q0 -86 -54.5 -145t-147.5 -59t-147.5 59t-54.5 145v495h57v-495q0 -72 43.5 -115t104.5 -43t104.5 43t43.5 115v495h51v-495z" />
    <glyph glyph-name="V" unicode="V" 
d="M481 688l-198 -688h-49l-202 688h61l142 -526l23 -94h2q12 48 24 93l143 527h54z" />
    <glyph glyph-name="W" unicode="W" horiz-adv-x="805" 
d="M764 688l-164 -688h-50l-130 539l-15 79h-2q-3 -35 -14 -79l-132 -539h-49l-164 688h61l113 -545l14 -79h2q6 39 16 79l132 545h48l131 -545l15 -79h2q6 43 14 79l118 545h54z" />
    <glyph glyph-name="X" unicode="X" horiz-adv-x="500" 
d="M468 0h-65l-153 315h-2l-159 -315h-57l190 356l-168 332h63l133 -286h2l147 286h52l-172 -326z" />
    <glyph glyph-name="Y" unicode="Y" horiz-adv-x="484" 
d="M462 688l-191 -375v-313h-56v313l-190 375h63l156 -337h2l161 337h55z" />
    <glyph glyph-name="Z" unicode="Z" horiz-adv-x="414" 
d="M381 0h-353l272 649h-260v39h332l-270 -649h279v-39z" />
    <glyph glyph-name="bracketleft" unicode="[" horiz-adv-x="331" 
d="M276 -215h-191v1000h191v-34h-141v-931h141v-35z" />
    <glyph glyph-name="backslash" unicode="\" horiz-adv-x="560" 
d="M540 -205l-41 -20l-479 1000l41 21z" />
    <glyph glyph-name="bracketright" unicode="]" horiz-adv-x="331" 
d="M246 -215h-191v35h141v931h-141v34h191v-1000z" />
    <glyph glyph-name="asciicircum" unicode="^" horiz-adv-x="560" 
d="M458 491l-17 -18l-161 185l-161 -185l-17 18l141 183q16 22 37 22t37 -22z" />
    <glyph glyph-name="underscore" unicode="_" 
d="M520 -185h-530v38h530v-38z" />
    <glyph glyph-name="grave" unicode="`" horiz-adv-x="170" 
d="M129 600h-32l-107 134q5 14 25.5 14t42.5 -14z" />
    <glyph glyph-name="a" unicode="a" horiz-adv-x="478" 
d="M401 28q-64 -38 -163 -38q-95 0 -142 41.5t-47 112.5q0 52 22.5 90t65.5 60.5t93.5 35t119.5 19.5v37q0 124 -131 124q-64 0 -125 -35l-15 35q68 39 146 39q76 0 126 -38.5t50 -125.5v-357zM350 45v272q-131 -17 -189.5 -52.5t-58.5 -120.5q0 -121 143 -121q64 0 105 22z
" />
    <glyph glyph-name="b" unicode="b" horiz-adv-x="505" 
d="M450 276q0 -129 -59.5 -207.5t-169.5 -78.5q-90 0 -144 37v758h53v-267q49 27 115 27q92 0 148.5 -73t56.5 -196zM396 276q0 101 -41.5 168.5t-120.5 67.5q-60 0 -104 -24v-444q32 -16 89 -16q91 0 134 67t43 181z" />
    <glyph glyph-name="c" unicode="c" horiz-adv-x="407" 
d="M367 24q-40 -34 -116 -34q-86 0 -141 76.5t-55 202.5q0 130 54.5 205t145.5 75q69 0 112 -34l-15 -34q-37 28 -89 28q-80 0 -116.5 -64t-36.5 -172q0 -109 39 -175t111 -66q51 0 91 29z" />
    <glyph glyph-name="d" unicode="d" horiz-adv-x="505" 
d="M428 27q-54 -37 -150 -37q-109 0 -166 74t-57 194q0 135 63 210t170 75q41 0 87 -13v255h53v-758zM375 46v453q-39 11 -79 11q-52 0 -89.5 -21t-58 -57t-30 -77.5t-9.5 -89.5q0 -107 42.5 -172t131.5 -65q66 0 92 18z" />
    <glyph glyph-name="e" unicode="e" horiz-adv-x="507" 
d="M452 297l-346 -51q6 -106 53 -160t128 -54q75 0 129 32l17 -39q-56 -35 -147 -35q-105 0 -168 68.5t-63 212.5q0 136 57 207t147 71q91 0 142 -61.5t51 -190.5zM399 324q0 185 -141 185q-69 0 -111 -56.5t-42 -173.5z" />
    <glyph glyph-name="f" unicode="f" horiz-adv-x="289" 
d="M260 508h-100v-508h-54v507h-63v32h63v86q0 72 39.5 116t114.5 44v-34q-100 -9 -100 -117v-95h100v-31z" />
    <glyph glyph-name="g" unicode="g" horiz-adv-x="505" 
d="M428 -15q0 -97 -50 -153.5t-142 -56.5q-95 0 -150 35l21 38q54 -32 121 -32q76 0 112 44t36 117v42q-42 -27 -114 -27q-96 0 -151.5 72.5t-55.5 196.5q0 130 59.5 209t169.5 79q90 0 144 -36v-528zM376 53v444q-32 18 -91 18q-89 0 -132.5 -68t-43.5 -186
q0 -234 167 -234q58 0 100 26z" />
    <glyph glyph-name="h" unicode="h" horiz-adv-x="511" 
d="M434 0h-54v386q0 121 -124 121q-68 0 -125 -34v-473h-54v785h54v-279q67 37 128 37q93 0 134 -46t41 -109v-388z" />
    <glyph glyph-name="i" unicode="i" horiz-adv-x="222" 
d="M147 690q0 -15 -10.5 -25.5t-25.5 -10.5t-25.5 10.5t-10.5 25.5t10.5 25.5t25.5 10.5t25.5 -10.5t10.5 -25.5zM138 0h-54v539h54v-539z" />
    <glyph glyph-name="j" unicode="j" horiz-adv-x="225" 
d="M150 690q0 -15 -10.5 -25.5t-25.5 -10.5t-25.5 10.5t-10.5 25.5t10.5 25.5t25.5 10.5t25.5 -10.5t10.5 -25.5zM141 17q0 -101 -47.5 -163t-110.5 -75v36q104 42 104 201v523h54v-522z" />
    <glyph glyph-name="k" unicode="k" horiz-adv-x="440" 
d="M430 0h-63l-230 281h-2v-281h-52v785h52v-502h2l212 256h60l-222 -257z" />
    <glyph glyph-name="l" unicode="l" horiz-adv-x="224" 
d="M139 0h-54v785h54v-785z" />
    <glyph glyph-name="m" unicode="m" horiz-adv-x="815" 
d="M738 0h-54v393q0 51 -28 84.5t-90 33.5q-78 0 -131 -59v-452h-54v398q0 52 -35 83t-102 31q-66 0 -113 -22v-490h-54v511q70 38 171 38q110 0 162 -70q65 70 162 70q87 0 126.5 -47t39.5 -107v-395z" />
    <glyph glyph-name="n" unicode="n" horiz-adv-x="511" 
d="M434 0h-54v392q0 120 -129 120q-68 0 -120 -22v-490h-54v511q71 38 182 38q94 0 134.5 -46.5t40.5 -107.5v-395z" />
    <glyph glyph-name="o" unicode="o" horiz-adv-x="504" 
d="M449 269q0 -126 -48 -202.5t-148 -76.5q-101 0 -149.5 76.5t-48.5 202.5q0 128 48 204t148 76q102 0 150 -76t48 -204zM395 268q0 246 -142 246q-144 0 -144 -246q0 -239 144 -239q142 0 142 239z" />
    <glyph glyph-name="p" unicode="p" horiz-adv-x="505" 
d="M450 281q0 -136 -63 -212.5t-171 -76.5q-48 0 -86 14v-221h-53v727q57 37 149 37q107 0 165.5 -73.5t58.5 -194.5zM396 275q0 240 -174 240q-57 0 -92 -19v-456q35 -13 77 -13q92 0 140.5 65.5t48.5 182.5z" />
    <glyph glyph-name="q" unicode="q" horiz-adv-x="505" 
d="M428 -215h-52v234q-42 -27 -114 -27q-96 0 -151.5 72.5t-55.5 196.5q0 130 59.5 209t169.5 79q90 0 144 -36v-728zM376 53v444q-32 18 -91 18q-89 0 -132.5 -68t-43.5 -186q0 -234 167 -234q58 0 100 26z" />
    <glyph glyph-name="r" unicode="r" horiz-adv-x="303" 
d="M280 549l-16 -47q-35 10 -73 5.5t-60 -20.5v-487h-54v511q41 21 81 29.5t122 8.5z" />
    <glyph glyph-name="s" unicode="s" horiz-adv-x="393" 
d="M340 144q0 -59 -48 -105.5t-120 -46.5q-81 0 -129 36l16 38q38 -32 110 -32q52 0 84.5 31.5t32.5 78.5q0 46 -24 71.5t-76 44.5q-74 27 -101 65t-27 86q0 57 42 98t109 41q69 0 113 -36l-16 -35q-43 32 -94 32q-49 0 -76.5 -28.5t-27.5 -71.5q0 -42 25.5 -66t74.5 -42
q132 -47 132 -159z" />
    <glyph glyph-name="t" unicode="t" horiz-adv-x="299" 
d="M260 2q-15 -5 -34 -5q-62 0 -91 37.5t-29 88.5v384h-63v32h63v129l54 20v-149h100v-31h-100v-388q0 -37 19 -61t59 -24q15 0 22 2v-35z" />
    <glyph glyph-name="u" unicode="u" horiz-adv-x="500" 
d="M423 33q-70 -44 -172 -44q-90 0 -132 45.5t-42 123.5v381h54v-379q0 -60 32 -95.5t94 -35.5q68 0 112 26v484h54v-506z" />
    <glyph glyph-name="v" unicode="v" horiz-adv-x="471" 
d="M438 539l-176 -539h-44l-182 539h59l132 -425l13 -57h2q4 24 14 57l133 425h49z" />
    <glyph glyph-name="w" unicode="w" horiz-adv-x="755" 
d="M716 539l-156 -539h-43l-124 432l-11 57h-2q-3 -26 -12 -57l-127 -432h-43l-156 539h57l109 -425l11 -57h2q3 23 13 57l124 425h49l120 -425l12 -57h2q5 30 12 58l112 424h51z" />
    <glyph glyph-name="x" unicode="x" horiz-adv-x="449" 
d="M416 0h-59l-132 242h-2l-134 -242h-56l165 279l-147 260h57l117 -218h2l120 218h52l-149 -254z" />
    <glyph glyph-name="y" unicode="y" horiz-adv-x="471" 
d="M438 539l-250 -754h-60l90 215l-182 539h59l130 -425l13 -60h2q5 27 15 60l134 425h49z" />
    <glyph glyph-name="z" unicode="z" horiz-adv-x="406" 
d="M363 0h-330l248 507h-232v32h304l-246 -507h256v-32z" />
    <glyph glyph-name="braceleft" unicode="{" horiz-adv-x="353" 
d="M293 -130q-161 0 -161 139v163q0 75 -15 105.5t-57 33.5v33q42 3 57 33.5t15 105.5v162q0 68 41.5 104t119.5 36v-34q-112 0 -112 -107v-194q0 -103 -76 -122v-2q76 -19 76 -121v-195q0 -107 112 -107v-33z" />
    <glyph glyph-name="bar" unicode="|" horiz-adv-x="218" 
d="M133 -215h-48v1000h48v-1000z" />
    <glyph glyph-name="braceright" unicode="}" horiz-adv-x="353" 
d="M293 311q-42 -3 -57 -33.5t-15 -105.5v-163q0 -139 -161 -139v33q112 0 112 107v195q0 102 76 121v2q-76 19 -76 122v194q0 107 -112 107v34q78 0 119.5 -36t41.5 -104v-162q0 -75 15 -105.5t57 -33.5v-33z" />
    <glyph glyph-name="asciitilde" unicode="~" horiz-adv-x="560" 
d="M471 351q-20 -66 -95 -78q-37 -6 -94.5 31t-94.5 32q-46 -6 -73 -64l-25 28q14 35 34 55t57 24q35 4 67.5 -14t62.5 -36.5t60 -13.5q51 9 73 66z" />
    <glyph glyph-name="nbspace" unicode="&#xa0;" horiz-adv-x="280" 
 />
    <glyph glyph-name="exclamdown" unicode="&#xa1;" horiz-adv-x="269" 
d="M189 434q0 -17 -12.5 -29.5t-29.5 -12.5t-29.5 12.5t-12.5 29.5t12.5 29.5t29.5 12.5t29.5 -12.5t12.5 -29.5zM178 -215h-63l12 473h39z" />
    <glyph glyph-name="cent" unicode="&#xa2;" 
d="M400 133q-35 -28 -108 -29l6 -103h-44l7 104q-79 8 -125 70t-46 168q0 102 47 165.5t126 72.5l-8 106h45l-6 -105q70 -1 106 -29l-14 -30q-40 23 -89 23q-78 0 -116 -54.5t-38 -145.5q0 -93 39 -148t113 -55q51 0 90 23z" />
    <glyph glyph-name="sterling" unicode="&#xa3;" 
d="M459 0h-385q93 114 93 237q0 37 -14 101h-95v33h86q-26 88 -26 148q0 78 55 128.5t141 50.5q85 0 132 -34l-17 -35q-52 28 -113 28q-73 0 -108.5 -43t-35.5 -112q0 -61 22 -131h135v-33h-128q11 -45 11 -103q0 -51 -21 -108t-38 -82h306v-45z" />
    <glyph glyph-name="currency" unicode="&#xa4;" 
d="M465 157l-27 -27l-73 73q-49 -39 -110 -39t-110 39l-73 -73l-27 27l73 73q-38 48 -38 110t38 110l-73 73l27 27l73 -73q47 38 110 38t110 -39l73 74l27 -27l-73 -74q38 -47 38 -109t-38 -110zM393 340q0 57 -40.5 97.5t-97.5 40.5t-97.5 -40.5t-40.5 -97.5
q0 -58 40.5 -98t97.5 -40t97.5 40t40.5 98z" />
    <glyph glyph-name="yen" unicode="&#xa5;" 
d="M472 688l-124 -247l114 7v-35l-123 9l-55 -109l178 7v-36l-180 10l1 -294h-54v294l-182 -10v36l180 -7l-56 109l-124 -9v35l115 -7l-124 247h61l157 -345h2l161 345h53z" />
    <glyph glyph-name="brokenbar" unicode="&#xa6;" horiz-adv-x="218" 
d="M133 392h-48v393h48v-393zM133 -215h-48v393h48v-393z" />
    <glyph glyph-name="section" unicode="&#xa7;" 
d="M430 215q0 -95 -122 -168q75 -65 75 -136q0 -58 -43.5 -96.5t-108.5 -38.5q-69 0 -119 35l18 36q39 -32 94 -32q43 0 75 24.5t32 66.5q0 31 -12 55t-52 57l-100 84q-50 41 -67.5 79.5t-17.5 88.5q0 98 121 173q-64 60 -64 130q0 51 38.5 86.5t97.5 35.5q71 0 112 -33
l-16 -31q-43 27 -92 27q-42 0 -68 -22t-26 -63q0 -31 16 -59t61 -66l72 -61q55 -46 75.5 -83.5t20.5 -88.5zM380 206q0 45 -14 75.5t-56 66.5l-83 71q-98 -60 -98 -142q0 -45 17.5 -77.5t58.5 -66.5l76 -64q99 63 99 137z" />
    <glyph glyph-name="dieresis" unicode="&#xa8;" horiz-adv-x="170" 
d="M193 658q0 -14 -10 -24t-24 -10t-23.5 10t-9.5 24t10 24t23 10q14 0 24 -10t10 -24zM43 658q0 -14 -9.5 -24t-23.5 -10t-24 10t-10 24t10 24t24 10q13 0 23 -10t10 -24z" />
    <glyph glyph-name="copyright" unicode="&#xa9;" horiz-adv-x="836" 
d="M771 343q0 -146 -103.5 -249t-249.5 -103t-249.5 103t-103.5 249t103.5 249.5t249.5 103.5t249.5 -103.5t103.5 -249.5zM737 343q0 132 -93.5 225.5t-225.5 93.5t-225.5 -93.5t-93.5 -225.5t93.5 -225t225.5 -93t225.5 93t93.5 225zM582 210q-61 -76 -162 -76
q-87 0 -148.5 62t-61.5 149q0 88 61.5 150t148.5 62q98 0 161 -77l-26 -24q-53 66 -135 66q-72 0 -123.5 -52t-51.5 -125t51.5 -124.5t123.5 -51.5q81 0 134 63z" />
    <glyph glyph-name="ordfeminine" unicode="&#xaa;" horiz-adv-x="340" 
d="M285 380q-43 -24 -109 -24q-64 0 -97 26t-33 69q0 33 15 56t46 36t62 19t78 11v22q0 71 -83 71q-42 0 -80 -20l-12 26q40 23 96 23q117 0 117 -99v-216zM247 394v154q-87 -11 -124.5 -29.5t-37.5 -67.5q0 -69 96 -69q42 0 66 12z" />
    <glyph glyph-name="guillemotleft" unicode="&#xab;" horiz-adv-x="498" 
d="M418 148l-29 -22l-152 208l152 208l29 -22l-134 -186zM250 148l-28 -22l-152 208l152 208l28 -22l-132 -186z" />
    <glyph glyph-name="logicalnot" unicode="&#xac;" 
d="M442 153h-43v165h-331v40h374v-205z" />
    <glyph glyph-name="registered" unicode="&#xae;" horiz-adv-x="836" 
d="M771 343q0 -146 -103.5 -249t-249.5 -103t-249.5 103t-103.5 249t103.5 249.5t249.5 103.5t249.5 -103.5t103.5 -249.5zM737 343q0 132 -93.5 225.5t-225.5 93.5t-225.5 -93.5t-93.5 -225.5t93.5 -225t225.5 -93t225.5 93t93.5 225zM558 135h-43l-147 203h-18v-203h-37
v416q38 19 94 19q54 0 94.5 -29t40.5 -88q0 -54 -37 -84t-96 -30zM504 454q0 44 -31 64.5t-72 20.5q-26 0 -51 -9v-166h43q46 0 78.5 22t32.5 68z" />
    <glyph glyph-name="macron" unicode="&#xaf;" horiz-adv-x="170" 
d="M217 632h-264v36h264v-36z" />
    <glyph glyph-name="degree" unicode="&#xb0;" horiz-adv-x="423" 
d="M358 552q0 -61 -43 -104t-103 -43q-61 0 -104 43t-43 104t43 103.5t104 42.5q60 0 103 -42.5t43 -103.5zM324 552q0 46 -33 79t-79 33q-47 0 -80 -33t-33 -79t33 -79t80 -33q46 0 79 33t33 79z" />
    <glyph glyph-name="plusminus" unicode="&#xb1;" 
d="M442 365h-167v-184h-41v184h-166v41h166v183h41v-183h167v-41zM442 73h-374v41h374v-41z" />
    <glyph glyph-name="twosuperior" unicode="&#xb2;" horiz-adv-x="360" 
d="M295 275h-240l154 210q39 54 39 95q0 35 -23 57t-66 22q-36 0 -70 -18l-14 30q43 23 97 23q51 0 86.5 -29.5t35.5 -81.5q0 -47 -52 -116l-118 -155h171v-37z" />
    <glyph glyph-name="threesuperior" unicode="&#xb3;" horiz-adv-x="360" 
d="M290 393q0 -56 -37.5 -90t-92.5 -34q-64 0 -100 23l13 31q35 -20 80 -20q43 0 68.5 24t25.5 66q0 39 -23 61.5t-48.5 27t-53.5 2.5v31q49 3 78.5 25.5t29.5 57.5q0 33 -20 48t-50 15q-43 0 -73 -18l-13 29q43 23 91 23q44 0 76 -24.5t32 -68.5q0 -64 -71 -96
q37 -11 62.5 -38t25.5 -75z" />
    <glyph glyph-name="acute" unicode="&#xb4;" horiz-adv-x="170" 
d="M180 734l-107 -134h-32l71 134q23 14 43 14.5t25 -14.5z" />
    <glyph glyph-name="mu" unicode="&#xb5;" horiz-adv-x="511" 
d="M434 33q-70 -40 -172 -40q-64 0 -131 39v-247h-54v754h54v-473q59 -34 128 -34q74 0 121 25v482h54v-506z" />
    <glyph glyph-name="paragraph" unicode="&#xb6;" 
d="M467 655h-30v-870h-47v870h-151v-870h-47v554q-74 6 -117.5 53t-43.5 119q0 90 59 133.5t148 43.5h229v-33z" />
    <glyph glyph-name="periodcentered" unicode="&#xb7;" horiz-adv-x="224" 
d="M155 344q0 -18 -12.5 -30.5t-30.5 -12.5t-30.5 12.5t-12.5 30.5t12.5 30.5t30.5 12.5t30.5 -12.5t12.5 -30.5z" />
    <glyph glyph-name="cedilla" unicode="&#xb8;" horiz-adv-x="170" 
d="M207 -124q0 -42 -64 -59.5t-180 -7.5l17 26q72 -5 125 4.5t53 36.5q0 24 -32 31.5t-99 2.5l17 25q163 16 163 -59z" />
    <glyph glyph-name="onesuperior" unicode="&#xb9;" horiz-adv-x="360" 
d="M235 275h-43v348q-44 -17 -109 -22l-3 22q92 11 127 65h28v-413z" />
    <glyph glyph-name="ordmasculine" unicode="&#xba;" horiz-adv-x="340" 
d="M302 527q0 -76 -32 -123t-100 -47t-100 47t-32 123q0 77 32 123.5t100 46.5q69 0 100.5 -46.5t31.5 -123.5zM260 527q0 144 -90 144t-90 -144q0 -140 90 -140t90 140z" />
    <glyph glyph-name="guillemotright" unicode="&#xbb;" horiz-adv-x="498" 
d="M428 334l-152 -208l-28 22l132 186l-132 186l28 22zM261 334l-152 -208l-29 22l134 186l-134 186l29 22z" />
    <glyph glyph-name="onequarter" unicode="&#xbc;" horiz-adv-x="774" 
d="M689 98h-35v-98h-39v98h-171v30l173 285h37v-284h35v-31zM567 679l-342 -689l-37 19l341 687zM211 275h-42v348q-45 -17 -111 -22l-3 22q94 13 128 65h28v-413zM616 361h-2q-9 -23 -23 -47l-109 -185h132v185z" />
    <glyph glyph-name="onehalf" unicode="&#xbd;" horiz-adv-x="774" 
d="M689 0h-238l154 205q39 51 39 100q0 80 -90 80q-33 0 -69 -19l-13 30q44 23 96 23q51 0 86 -31t35 -82q0 -55 -51 -119l-119 -151h170v-36zM551 679l-342 -689l-37 19l341 687zM211 275h-42v348q-45 -17 -111 -22l-3 22q94 13 128 65h28v-413z" />
    <glyph glyph-name="threequarters" unicode="&#xbe;" horiz-adv-x="774" 
d="M694 98h-35v-98h-39v98h-171v30l173 285h37v-284h35v-31zM598 679l-342 -689l-37 19l341 687zM291 393q0 -56 -37.5 -90t-92.5 -34q-65 0 -101 23l13 31q35 -20 81 -20q43 0 68.5 24t25.5 66q0 39 -23 61.5t-48.5 27t-53.5 2.5v31q49 3 78.5 25.5t29.5 57.5q0 33 -20 48
t-50 15q-43 0 -73 -18l-14 29q44 23 92 23q44 0 76 -24.5t32 -68.5q0 -64 -71 -96q37 -11 62.5 -38t25.5 -75zM621 360h-2q-9 -22 -23 -46l-109 -185h132v185z" />
    <glyph glyph-name="questiondown" unicode="&#xbf;" horiz-adv-x="366" 
d="M260 434q0 -17 -12.5 -29.5t-29.5 -12.5t-29.5 12.5t-12.5 29.5t12.5 29.5t29.5 12.5t29.5 -12.5t12.5 -29.5zM351 -186q-54 -36 -130 -36q-80 0 -128 42.5t-48 114.5q0 60 46 103t97 57l11 163h39l13 -182q-56 -13 -103.5 -48.5t-47.5 -92.5q0 -53 32.5 -84.5
t94.5 -31.5q60 0 106 27z" />
    <glyph glyph-name="Agrave" unicode="&#xc0;" horiz-adv-x="571" 
d="M303 740h-32l-107 134q4 14 25 14t43 -14zM545 0h-59l-76 235h-252l-78 -235h-54l238 688h45zM398 272l-90 278l-22 81h-2q-4 -23 -23 -80l-91 -279h228z" />
    <glyph glyph-name="Aacute" unicode="&#xc1;" horiz-adv-x="571" 
d="M396 874l-107 -134h-32l71 134q23 14 43 14.5t25 -14.5zM545 0h-59l-76 235h-252l-78 -235h-54l238 688h45zM398 272l-90 278l-22 81h-2q-4 -23 -23 -80l-91 -279h228z" />
    <glyph glyph-name="Acircumflex" unicode="&#xc2;" horiz-adv-x="571" 
d="M411 756l-17 -13l-107 80l-108 -80l-16 13l95 98q13 13 28 13q16 0 29 -13zM545 0h-59l-76 235h-252l-78 -235h-54l238 688h45zM398 272l-90 278l-22 81h-2q-4 -23 -23 -80l-91 -279h228z" />
    <glyph glyph-name="Atilde" unicode="&#xc3;" horiz-adv-x="571" 
d="M418 809q-8 -22 -21.5 -34.5t-41.5 -16.5q-28 -5 -67.5 16.5t-62.5 19.5q-33 -3 -48 -41l-23 25q9 23 23.5 36.5t42.5 16.5q29 3 66 -19t60 -19q35 5 47 42zM545 0h-59l-76 235h-252l-78 -235h-54l238 688h45zM398 272l-90 278l-22 81h-2q-4 -23 -23 -80l-91 -279h228z
" />
    <glyph glyph-name="Adieresis" unicode="&#xc4;" horiz-adv-x="571" 
d="M395 798q0 -14 -10 -24t-24 -10t-23.5 10t-9.5 24t10 24t23 10q14 0 24 -10t10 -24zM245 798q0 -14 -9.5 -24t-23.5 -10t-24 10t-10 24t10 24t24 10q13 0 23 -10t10 -24zM545 0h-59l-76 235h-252l-78 -235h-54l238 688h45zM398 272l-90 278l-22 81h-2q-4 -23 -23 -80
l-91 -279h228z" />
    <glyph glyph-name="Aring" unicode="&#xc5;" horiz-adv-x="571" 
d="M363 816q0 -32 -22.5 -54t-53.5 -22q-32 0 -54.5 22t-22.5 54t22.5 54.5t54.5 22.5t54 -22.5t22 -54.5zM545 0h-59l-76 235h-252l-78 -235h-54l238 688h45zM336 816q0 21 -14.5 35.5t-34.5 14.5q-21 0 -35.5 -14.5t-14.5 -35.5q0 -20 14.5 -34.5t35.5 -14.5
q20 0 34.5 14.5t14.5 34.5zM398 272l-90 278l-22 81h-2q-4 -23 -23 -80l-91 -279h228z" />
    <glyph glyph-name="AE" unicode="&#xc6;" horiz-adv-x="738" 
d="M718 0h-243l-57 235h-256l-95 -235h-55l287 688h355v-39h-292l71 -272h220v-39h-210l78 -299h197v-39zM409 272l-76 310l-11 63h-2q-6 -28 -20 -64l-125 -309h234z" />
    <glyph glyph-name="Ccedilla" unicode="&#xc7;" horiz-adv-x="472" 
d="M437 27q-45 -37 -127 -37q-113 0 -182 100.5t-69 253.5q0 151 68.5 252.5t181.5 101.5q78 0 128 -36l-17 -34q-42 30 -103 30q-69 0 -115 -46.5t-64.5 -114.5t-18.5 -153q0 -134 49.5 -223t147.5 -89q56 0 104 29zM387 -124q0 -42 -64 -59.5t-180 -7.5l17 26
q72 -5 125 4.5t53 36.5q0 24 -32 31.5t-99 2.5l17 25q86 8 124.5 -9t38.5 -50z" />
    <glyph glyph-name="Egrave" unicode="&#xc8;" horiz-adv-x="433" 
d="M266 740h-32l-107 134q5 14 25 14t43 -14zM386 0h-303v688h303v-39h-246v-272h223v-39h-223v-299h246v-39z" />
    <glyph glyph-name="Eacute" unicode="&#xc9;" horiz-adv-x="433" 
d="M339 874l-107 -134h-32l71 134q23 14 43 14.5t25 -14.5zM386 0h-303v688h303v-39h-246v-272h223v-39h-223v-299h246v-39z" />
    <glyph glyph-name="Ecircumflex" unicode="&#xca;" horiz-adv-x="433" 
d="M354 756l-17 -13l-107 80l-108 -80l-16 13l95 98q13 13 28 13q16 0 29 -13zM386 0h-303v688h303v-39h-246v-272h223v-39h-223v-299h246v-39z" />
    <glyph glyph-name="Edieresis" unicode="&#xcb;" horiz-adv-x="433" 
d="M338 798q0 -14 -10 -24t-24 -10t-23.5 10t-9.5 24t10 24t23 10q14 0 24 -10t10 -24zM188 798q0 -14 -9.5 -24t-23.5 -10t-24 10t-10 24t10 24t24 10q13 0 23 -10t10 -24zM386 0h-303v688h303v-39h-246v-272h223v-39h-223v-299h246v-39z" />
    <glyph glyph-name="Igrave" unicode="&#xcc;" horiz-adv-x="231" 
d="M159 740h-32l-107 134q5 14 25.5 14t42.5 -14zM145 0h-57v688h57v-688z" />
    <glyph glyph-name="Iacute" unicode="&#xcd;" horiz-adv-x="231" 
d="M211 874l-107 -134h-32l71 134q23 14 43 14.5t25 -14.5zM143 0h-57v688h57v-688z" />
    <glyph glyph-name="Icircumflex" unicode="&#xce;" horiz-adv-x="231" 
d="M239 756l-16 -13l-107 80l-108 -80l-16 13l95 98q13 13 28 13q16 0 29 -13zM144 0h-57v688h57v-688z" />
    <glyph glyph-name="Idieresis" unicode="&#xcf;" horiz-adv-x="231" 
d="M224 798q0 -14 -10 -24t-24 -10t-23.5 10t-9.5 24t10 24t23 10q14 0 24 -10t10 -24zM74 798q0 -14 -9.5 -24t-23.5 -10t-24 10t-10 24t10 24t24 10q13 0 23 -10t10 -24zM144 0h-57v688h57v-688z" />
    <glyph glyph-name="Eth" unicode="&#xd0;" horiz-adv-x="612" 
d="M553 353q0 -169 -69 -266t-202 -97q-114 0 -170 36v334h-65v29h65v272q62 37 168 37q129 0 201 -90.5t72 -254.5zM493 353q0 151 -55.5 230t-164.5 79q-63 0 -104 -16v-257h133v-28h-133v-313q41 -17 105 -17q115 0 167 82.5t52 239.5z" />
    <glyph glyph-name="Ntilde" unicode="&#xd1;" horiz-adv-x="644" 
d="M455 809q-8 -22 -21.5 -34.5t-41.5 -16.5q-28 -5 -67.5 16.5t-62.5 19.5q-33 -3 -48 -41l-23 25q9 23 23.5 36.5t42.5 16.5q29 3 66 -19t60 -19q35 5 47 42zM561 0h-58l-325 559l-48 90h-2q3 -45 3 -91v-558h-48v688h73l317 -548l41 -77h3q-4 33 -4 80v545h48v-688z" />
    <glyph glyph-name="Ograve" unicode="&#xd2;" horiz-adv-x="595" 
d="M332 740h-32l-107 134q5 14 25 14t43 -14zM536 344q0 -160 -58.5 -257t-180.5 -97q-62 0 -109 27t-74.5 76t-41 111.5t-13.5 139.5q0 158 58.5 256t179.5 98q122 0 180.5 -98t58.5 -256zM479 345q0 62 -8.5 114t-27.5 99t-56.5 74t-89.5 27t-89 -27t-56 -74t-27.5 -99
t-8.5 -114q0 -312 181 -312q182 0 182 312z" />
    <glyph glyph-name="Oacute" unicode="&#xd3;" horiz-adv-x="595" 
d="M395 874l-107 -134h-32l71 134q23 14 43 14.5t25 -14.5zM536 344q0 -160 -58.5 -257t-180.5 -97q-62 0 -109 27t-74.5 76t-41 111.5t-13.5 139.5q0 158 58.5 256t179.5 98q122 0 180.5 -98t58.5 -256zM479 345q0 62 -8.5 114t-27.5 99t-56.5 74t-89.5 27t-89 -27t-56 -74
t-27.5 -99t-8.5 -114q0 -312 181 -312q182 0 182 312z" />
    <glyph glyph-name="Ocircumflex" unicode="&#xd4;" horiz-adv-x="595" 
d="M422 756l-17 -13l-107 80l-108 -80l-16 13l95 98q13 13 28 13q16 0 29 -13zM536 344q0 -160 -58.5 -257t-180.5 -97q-62 0 -109 27t-74.5 76t-41 111.5t-13.5 139.5q0 158 58.5 256t179.5 98q122 0 180.5 -98t58.5 -256zM479 345q0 62 -8.5 114t-27.5 99t-56.5 74
t-89.5 27t-89 -27t-56 -74t-27.5 -99t-8.5 -114q0 -312 181 -312q182 0 182 312z" />
    <glyph glyph-name="Otilde" unicode="&#xd5;" horiz-adv-x="595" 
d="M425 809q-8 -22 -21.5 -34.5t-41.5 -16.5q-28 -5 -67.5 16.5t-62.5 19.5q-33 -3 -48 -41l-23 25q9 23 23.5 36.5t42.5 16.5q29 3 66 -19t60 -19q35 5 47 42zM536 344q0 -160 -58.5 -257t-180.5 -97q-62 0 -109 27t-74.5 76t-41 111.5t-13.5 139.5q0 158 58.5 256
t179.5 98q122 0 180.5 -98t58.5 -256zM479 345q0 62 -8.5 114t-27.5 99t-56.5 74t-89.5 27t-89 -27t-56 -74t-27.5 -99t-8.5 -114q0 -312 181 -312q182 0 182 312z" />
    <glyph glyph-name="Odieresis" unicode="&#xd6;" horiz-adv-x="595" 
d="M406 798q0 -14 -10 -24t-24 -10t-23.5 10t-9.5 24t10 24t23 10q14 0 24 -10t10 -24zM256 798q0 -14 -9.5 -24t-23.5 -10t-24 10t-10 24t10 24t24 10q13 0 23 -10t10 -24zM536 344q0 -160 -58.5 -257t-180.5 -97q-62 0 -109 27t-74.5 76t-41 111.5t-13.5 139.5
q0 158 58.5 256t179.5 98q122 0 180.5 -98t58.5 -256zM479 345q0 62 -8.5 114t-27.5 99t-56.5 74t-89.5 27t-89 -27t-56 -74t-27.5 -99t-8.5 -114q0 -312 181 -312q182 0 182 312z" />
    <glyph glyph-name="multiply" unicode="&#xd7;" 
d="M446 147l-28 -27l-163 184l-161 -183l-30 27l165 186l-165 187l29 27l162 -183l161 183l29 -27l-164 -187z" />
    <glyph glyph-name="Oslash" unicode="&#xd8;" horiz-adv-x="601" 
d="M539 344q0 -160 -58.5 -257t-180.5 -97q-103 0 -163 74l-51 -80l-23 15l57 89q-58 93 -58 256q0 158 58.5 256t179.5 98q101 0 162 -72l53 83l24 -14l-59 -93q59 -94 59 -258zM435 584q-46 78 -135 78q-52 0 -89.5 -27.5t-57.5 -75t-29 -100.5t-9 -114q0 -132 35 -210z
M486 345q0 131 -36 210l-286 -448q48 -77 136 -77q54 0 92.5 27.5t58 75.5t27.5 99t8 113z" />
    <glyph glyph-name="Ugrave" unicode="&#xd9;" horiz-adv-x="570" 
d="M337 740h-33l-106 134q4 14 25 14t43 -14zM487 193q0 -86 -54.5 -145t-147.5 -59t-147.5 59t-54.5 145v495h57v-495q0 -72 43.5 -115t104.5 -43t104.5 43t43.5 115v495h51v-495z" />
    <glyph glyph-name="Uacute" unicode="&#xda;" horiz-adv-x="570" 
d="M385 874l-106 -134h-33l71 134q23 14 43 14.5t25 -14.5zM487 193q0 -86 -54.5 -145t-147.5 -59t-147.5 59t-54.5 145v495h57v-495q0 -72 43.5 -115t104.5 -43t104.5 43t43.5 115v495h51v-495z" />
    <glyph glyph-name="Ucircumflex" unicode="&#xdb;" horiz-adv-x="570" 
d="M410 756l-17 -13l-106 80l-108 -80l-17 13l96 98q13 13 27 13q17 0 29 -13zM487 193q0 -86 -54.5 -145t-147.5 -59t-147.5 59t-54.5 145v495h57v-495q0 -72 43.5 -115t104.5 -43t104.5 43t43.5 115v495h51v-495z" />
    <glyph glyph-name="Udieresis" unicode="&#xdc;" horiz-adv-x="570" 
d="M398 798q0 -14 -9.5 -24t-23.5 -10t-24 10t-10 24t10 24t24 10q13 0 23 -10t10 -24zM249 798q0 -14 -10 -24t-24 -10t-24 10t-10 24t10 24t24 10t24 -10t10 -24zM487 193q0 -86 -54.5 -145t-147.5 -59t-147.5 59t-54.5 145v495h57v-495q0 -72 43.5 -115t104.5 -43
t104.5 43t43.5 115v495h51v-495z" />
    <glyph glyph-name="Yacute" unicode="&#xdd;" horiz-adv-x="484" 
d="M349 874l-107 -134h-32l71 134q23 14 43 14.5t25 -14.5zM462 688l-191 -375v-313h-56v313l-190 375h63l156 -337h2l161 337h55z" />
    <glyph glyph-name="Thorn" unicode="&#xde;" horiz-adv-x="505" 
d="M451 370q0 -93 -70 -149t-206 -48l-35 2v-175h-57v688h57v-127q52 16 94 16q103 0 160 -58t57 -149zM395 364q0 87 -46.5 133t-120.5 46q-48 0 -88 -13v-318l33 -3q109 -10 165.5 35t56.5 120z" />
    <glyph glyph-name="germandbls" unicode="&#xdf;" horiz-adv-x="524" 
d="M475 141q0 -60 -46.5 -103.5t-116.5 -43.5q-60 0 -93 20l15 36q32 -15 76 -15q49 0 80 29.5t31 77.5q0 38 -18 62t-63 51q-88 52 -88 129q0 51 32.5 84t87.5 45q9 28 9 72q0 173 -118 173q-128 0 -128 -214v-544h-54v543q0 35 4 66.5t16 66.5t31.5 60t53 41.5t77.5 16.5
q85 0 128 -59.5t43 -151.5q0 -53 -15 -96q-118 -13 -118 -101q0 -29 17 -51t63 -50q94 -55 94 -144z" />
    <glyph glyph-name="agrave" unicode="&#xe0;" horiz-adv-x="478" 
d="M280 600h-32l-107 134q5 14 25.5 14t42.5 -14zM401 27q-66 -37 -163 -37q-95 0 -142 41.5t-47 112.5q0 52 22.5 90t65.5 60.5t93.5 35t119.5 19.5v37q0 124 -131 124q-64 0 -125 -35l-15 35q68 39 146 39q76 0 126 -38.5t50 -125.5v-358zM350 45v272
q-131 -17 -189.5 -52.5t-58.5 -120.5q0 -121 143 -121q64 0 105 22z" />
    <glyph glyph-name="aacute" unicode="&#xe1;" horiz-adv-x="478" 
d="M353 734l-107 -134h-32l71 134q23 14 43 14.5t25 -14.5zM401 27q-66 -37 -163 -37q-95 0 -142 41.5t-47 112.5q0 52 22.5 90t65.5 60.5t93.5 35t119.5 19.5v37q0 124 -131 124q-64 0 -125 -35l-15 35q68 39 146 39q76 0 126 -38.5t50 -125.5v-358zM350 45v272
q-131 -17 -189.5 -52.5t-58.5 -120.5q0 -121 143 -121q64 0 105 22z" />
    <glyph glyph-name="acircumflex" unicode="&#xe2;" horiz-adv-x="478" 
d="M363 616l-17 -13l-107 80l-108 -80l-16 13l95 98q13 13 28 13q16 0 29 -13zM401 27q-66 -37 -163 -37q-95 0 -142 41.5t-47 112.5q0 52 22.5 90t65.5 60.5t93.5 35t119.5 19.5v37q0 124 -131 124q-64 0 -125 -35l-15 35q68 39 146 39q76 0 126 -38.5t50 -125.5v-358z
M350 45v272q-131 -17 -189.5 -52.5t-58.5 -120.5q0 -121 143 -121q64 0 105 22z" />
    <glyph glyph-name="atilde" unicode="&#xe3;" horiz-adv-x="478" 
d="M369 669q-8 -22 -21.5 -34.5t-41.5 -16.5q-28 -5 -67.5 16.5t-62.5 19.5q-33 -3 -48 -41l-23 25q9 23 23.5 36.5t42.5 16.5q29 3 66 -19t60 -19q35 5 47 42zM401 27q-66 -37 -163 -37q-95 0 -142 41.5t-47 112.5q0 52 22.5 90t65.5 60.5t93.5 35t119.5 19.5v37
q0 124 -131 124q-64 0 -125 -35l-15 35q68 39 146 39q76 0 126 -38.5t50 -125.5v-358zM350 45v272q-131 -17 -189.5 -52.5t-58.5 -120.5q0 -121 143 -121q64 0 105 22z" />
    <glyph glyph-name="adieresis" unicode="&#xe4;" horiz-adv-x="478" 
d="M352 658q0 -14 -10 -24t-24 -10t-23.5 10t-9.5 24t10 24t23 10q14 0 24 -10t10 -24zM202 658q0 -14 -9.5 -24t-23.5 -10t-24 10t-10 24t10 24t24 10q13 0 23 -10t10 -24zM401 27q-66 -37 -163 -37q-95 0 -142 41.5t-47 112.5q0 52 22.5 90t65.5 60.5t93.5 35t119.5 19.5
v37q0 124 -131 124q-64 0 -125 -35l-15 35q68 39 146 39q76 0 126 -38.5t50 -125.5v-358zM350 45v272q-131 -17 -189.5 -52.5t-58.5 -120.5q0 -121 143 -121q64 0 105 22z" />
    <glyph glyph-name="aring" unicode="&#xe5;" horiz-adv-x="478" 
d="M319 676q0 -32 -22.5 -54t-53.5 -22q-32 0 -54.5 22t-22.5 54t22.5 54.5t54.5 22.5t54 -22.5t22 -54.5zM401 27q-66 -37 -163 -37q-95 0 -142 41.5t-47 112.5q0 52 22.5 90t65.5 60.5t93.5 35t119.5 19.5v37q0 124 -131 124q-64 0 -125 -35l-15 35q68 39 146 39
q76 0 126 -38.5t50 -125.5v-358zM292 676q0 21 -14.5 35.5t-34.5 14.5q-21 0 -35.5 -14.5t-14.5 -35.5q0 -20 14.5 -34.5t35.5 -14.5q20 0 34.5 14.5t14.5 34.5zM350 45v272q-131 -17 -189.5 -52.5t-58.5 -120.5q0 -121 143 -121q64 0 105 22z" />
    <glyph glyph-name="ae" unicode="&#xe6;" horiz-adv-x="791" 
d="M736 297l-346 -51q4 -109 54.5 -162t127.5 -53q76 0 130 30l16 -36q-58 -35 -148 -35q-126 0 -185 109q-46 -109 -160 -109q-91 0 -133.5 41t-42.5 112q0 175 302 205v38q0 66 -39.5 95.5t-100.5 29.5q-58 0 -115 -33l-13 34q55 37 139 37q124 0 160 -108
q25 55 68.5 81.5t92.5 26.5q192 0 193 -252zM683 324q-2 99 -37 142t-104 43q-68 0 -110.5 -56.5t-42.5 -173.5zM351 143v170q-66 -8 -108.5 -18.5t-77.5 -29.5t-51 -49t-16 -74q0 -118 130 -118q50 0 86.5 32.5t36.5 86.5z" />
    <glyph glyph-name="ccedilla" unicode="&#xe7;" horiz-adv-x="407" 
d="M367 24q-40 -34 -116 -34q-86 0 -141 76.5t-55 202.5q0 130 54.5 205t145.5 75q69 0 112 -34l-15 -34q-37 28 -89 28q-80 0 -116.5 -64t-36.5 -172q0 -109 39 -175t111 -66q51 0 91 29zM332 -124q0 -42 -64 -59.5t-180 -7.5l17 26q72 -5 125 4.5t53 36.5q0 24 -32 31.5
t-99 2.5l17 25q163 16 163 -59z" />
    <glyph glyph-name="egrave" unicode="&#xe8;" horiz-adv-x="507" 
d="M292 600h-32l-107 134q5 14 25.5 14t42.5 -14zM452 297l-346 -51q6 -106 53 -160t128 -54q75 0 129 32l17 -39q-56 -35 -147 -35q-105 0 -168 68.5t-63 212.5q0 136 57 207t147 71q91 0 142 -61.5t51 -190.5zM399 324q0 185 -141 185q-69 0 -111 -56.5t-42 -173.5z" />
    <glyph glyph-name="eacute" unicode="&#xe9;" horiz-adv-x="507" 
d="M365 734l-107 -134h-32l71 134q23 14 43 14.5t25 -14.5zM452 297l-346 -51q6 -106 53 -160t128 -54q75 0 129 32l17 -39q-56 -35 -147 -35q-105 0 -168 68.5t-63 212.5q0 136 57 207t147 71q91 0 142 -61.5t51 -190.5zM399 324q0 185 -141 185q-69 0 -111 -56.5
t-42 -173.5z" />
    <glyph glyph-name="ecircumflex" unicode="&#xea;" horiz-adv-x="507" 
d="M382 616l-17 -13l-107 80l-108 -80l-16 13l95 98q13 13 28 13q16 0 29 -13zM452 297l-346 -51q6 -106 53 -160t128 -54q75 0 129 32l17 -39q-56 -35 -147 -35q-105 0 -168 68.5t-63 212.5q0 136 57 207t147 71q91 0 142 -61.5t51 -190.5zM399 324q0 185 -141 185
q-69 0 -111 -56.5t-42 -173.5z" />
    <glyph glyph-name="edieresis" unicode="&#xeb;" horiz-adv-x="507" 
d="M369 658q0 -14 -10 -24t-24 -10t-23.5 10t-9.5 24t10 24t23 10q14 0 24 -10t10 -24zM219 658q0 -14 -9.5 -24t-23.5 -10t-24 10t-10 24t10 24t24 10q13 0 23 -10t10 -24zM452 297l-346 -51q6 -106 53 -160t128 -54q75 0 129 32l17 -39q-56 -35 -147 -35q-105 0 -168 68.5
t-63 212.5q0 136 57 207t147 71q91 0 142 -61.5t51 -190.5zM399 324q0 185 -141 185q-69 0 -111 -56.5t-42 -173.5z" />
    <glyph glyph-name="igrave" unicode="&#xec;" horiz-adv-x="222" 
d="M152 600h-32l-107 134q4 14 24.5 14t43.5 -14zM138 0h-54v539h54v-539z" />
    <glyph glyph-name="iacute" unicode="&#xed;" horiz-adv-x="222" 
d="M209 734l-107 -134h-32l71 134q23 14 43 14.5t25 -14.5zM138 0h-54v539h54v-539z" />
    <glyph glyph-name="icircumflex" unicode="&#xee;" horiz-adv-x="222" 
d="M235 616l-17 -13l-106 80l-108 -80l-17 13l96 98q12 13 27 13q17 0 29 -13zM138 0h-54v539h54v-539z" />
    <glyph glyph-name="idieresis" unicode="&#xef;" horiz-adv-x="222" 
d="M219 658q0 -14 -10 -24t-24 -10t-23.5 10t-9.5 24t10 24t23 10q14 0 24 -10t10 -24zM70 658q0 -14 -9.5 -24t-23.5 -10t-24 10t-10 24t10 24t24 10q13 0 23 -10t10 -24zM139 0h-54v539h54v-539z" />
    <glyph glyph-name="eth" unicode="&#xf0;" horiz-adv-x="500" 
d="M443 263q0 -127 -45.5 -201t-144.5 -74q-94 0 -146 73t-52 202q0 53 10 99.5t32 87.5t63 65.5t97 24.5q45 0 82 -12q-41 99 -80 163l-90 -26l-14 23l89 28q-22 34 -45 62l42 14q25 -30 47 -62l77 23l14 -23l-77 -25q141 -229 141 -442zM389 266q0 128 -41 231
q-45 13 -83 13q-156 0 -156 -247q0 -66 12 -116t45.5 -85.5t87.5 -35.5q135 0 135 240z" />
    <glyph glyph-name="ntilde" unicode="&#xf1;" horiz-adv-x="511" 
d="M383 669q-8 -22 -21.5 -34.5t-41.5 -16.5q-28 -5 -67.5 16.5t-62.5 19.5q-33 -3 -48 -41l-23 25q9 23 23.5 36.5t42.5 16.5q29 3 66 -19t60 -19q35 5 47 42zM434 0h-54v398q0 114 -129 114q-68 0 -120 -22v-490h-54v511q71 38 185 38q79 0 125.5 -36t46.5 -114v-399z" />
    <glyph glyph-name="ograve" unicode="&#xf2;" horiz-adv-x="504" 
d="M282 600h-32l-107 134q5 14 25 14t43 -14zM449 269q0 -126 -48 -202.5t-148 -76.5q-101 0 -149.5 76.5t-48.5 202.5q0 128 48 204t148 76q102 0 150 -76t48 -204zM395 268q0 246 -142 246q-144 0 -144 -246q0 -239 144 -239q142 0 142 239z" />
    <glyph glyph-name="oacute" unicode="&#xf3;" horiz-adv-x="504" 
d="M359 734l-107 -134h-32l71 134q23 14 43 14.5t25 -14.5zM449 269q0 -126 -48 -202.5t-148 -76.5q-101 0 -149.5 76.5t-48.5 202.5q0 128 48 204t148 76q102 0 150 -76t48 -204zM395 268q0 246 -142 246q-144 0 -144 -246q0 -239 144 -239q142 0 142 239z" />
    <glyph glyph-name="ocircumflex" unicode="&#xf4;" horiz-adv-x="504" 
d="M376 616l-17 -13l-107 80l-108 -80l-16 13l95 98q13 13 28 13q16 0 29 -13zM449 269q0 -126 -48 -202.5t-148 -76.5q-101 0 -149.5 76.5t-48.5 202.5q0 128 48 204t148 76q102 0 150 -76t48 -204zM395 268q0 246 -142 246q-144 0 -144 -246q0 -239 144 -239
q142 0 142 239z" />
    <glyph glyph-name="otilde" unicode="&#xf5;" horiz-adv-x="504" 
d="M381 669q-8 -22 -21.5 -34.5t-41.5 -16.5q-28 -5 -67.5 16.5t-62.5 19.5q-33 -3 -48 -41l-23 25q9 23 23.5 36.5t42.5 16.5q29 3 66 -19t60 -19q35 5 47 42zM449 269q0 -126 -48 -202.5t-148 -76.5q-101 0 -149.5 76.5t-48.5 202.5q0 128 48 204t148 76q102 0 150 -76
t48 -204zM395 268q0 246 -142 246q-144 0 -144 -246q0 -239 144 -239q142 0 142 239z" />
    <glyph glyph-name="odieresis" unicode="&#xf6;" horiz-adv-x="504" 
d="M360 658q0 -14 -10 -24t-24 -10t-23.5 10t-9.5 24t10 24t23 10q14 0 24 -10t10 -24zM210 658q0 -14 -9.5 -24t-23.5 -10t-24 10t-10 24t10 24t24 10q13 0 23 -10t10 -24zM449 269q0 -126 -48 -202.5t-148 -76.5q-101 0 -149.5 76.5t-48.5 202.5q0 128 48 204t148 76
q102 0 150 -76t48 -204zM395 268q0 246 -142 246q-144 0 -144 -246q0 -239 144 -239q142 0 142 239z" />
    <glyph glyph-name="divide" unicode="&#xf7;" 
d="M297 491q0 -17 -12.5 -29.5t-29.5 -12.5q-18 0 -30.5 12.5t-12.5 29.5t12.5 29.5t29.5 12.5q18 0 30.5 -12.5t12.5 -29.5zM442 313h-374v41h374v-41zM297 176q0 -17 -12.5 -29.5t-29.5 -12.5q-18 0 -30.5 12.5t-12.5 29.5t12.5 29.5t29.5 12.5q18 0 30.5 -12.5
t12.5 -29.5z" />
    <glyph glyph-name="oslash" unicode="&#xf8;" horiz-adv-x="504" 
d="M449 269q0 -126 -48 -202.5t-148 -76.5q-76 0 -123 45l-44 -76l-22 13l48 83q-57 73 -57 214q0 128 48 204t148 76q76 0 122 -43l43 74l22 -13l-47 -80q58 -72 58 -218zM352 470q-36 49 -99 49q-43 0 -73.5 -22t-45.5 -61t-21.5 -79t-6.5 -88q0 -106 32 -169zM398 269
q0 111 -31 176l-214 -370q36 -49 100 -49q145 0 145 243z" />
    <glyph glyph-name="ugrave" unicode="&#xf9;" horiz-adv-x="500" 
d="M294 600h-32l-107 134q5 14 25.5 14t42.5 -14zM423 32q-72 -43 -172 -43q-90 0 -132 45.5t-42 123.5v381h54v-379q0 -60 32 -95.5t94 -35.5q68 0 112 26v484h54v-507z" />
    <glyph glyph-name="uacute" unicode="&#xfa;" horiz-adv-x="500" 
d="M359 734l-107 -134h-32l71 134q23 14 43 14.5t25 -14.5zM423 32q-72 -43 -172 -43q-90 0 -132 45.5t-42 123.5v381h54v-379q0 -60 32 -95.5t94 -35.5q68 0 112 26v484h54v-507z" />
    <glyph glyph-name="ucircumflex" unicode="&#xfb;" horiz-adv-x="500" 
d="M375 616l-17 -13l-107 80l-108 -80l-16 13l95 98q13 13 28 13q16 0 29 -13zM423 32q-72 -43 -172 -43q-90 0 -132 45.5t-42 123.5v381h54v-379q0 -60 32 -95.5t94 -35.5q68 0 112 26v484h54v-507z" />
    <glyph glyph-name="udieresis" unicode="&#xfc;" horiz-adv-x="500" 
d="M358 658q0 -14 -9.5 -24t-23.5 -10t-24 10t-10 24t10 24t24 10q13 0 23 -10t10 -24zM209 658q0 -14 -10 -24t-24 -10t-24 10t-10 24t10 24t24 10t24 -10t10 -24zM423 32q-72 -43 -172 -43q-90 0 -132 45.5t-42 123.5v381h54v-379q0 -60 32 -95.5t94 -35.5q68 0 112 26
v484h54v-507z" />
    <glyph glyph-name="yacute" unicode="&#xfd;" horiz-adv-x="471" 
d="M346 734l-107 -134h-32l71 134q23 14 43 14.5t25 -14.5zM438 539l-251 -754h-58l89 215l-182 539h58l145 -469h2l147 469h50z" />
    <glyph glyph-name="thorn" unicode="&#xfe;" horiz-adv-x="507" 
d="M452 278q0 -133 -66 -209t-169 -76q-40 0 -86 13v-221h-54v1000h53v-264q46 26 98 26q110 0 167 -72.5t57 -196.5zM398 272q0 110 -42.5 176t-132.5 66q-52 0 -92 -22v-454q44 -12 77 -12q52 0 90 21t59 57.5t31 78t10 89.5z" />
    <glyph glyph-name="ydieresis" unicode="&#xff;" horiz-adv-x="471" 
d="M348 658q0 -14 -10 -24t-24 -10t-23.5 10t-9.5 24t10 24t23 10q14 0 24 -10t10 -24zM198 658q0 -14 -9.5 -24t-23.5 -10t-24 10t-10 24t10 24t24 10q13 0 23 -10t10 -24zM438 539l-251 -754h-58l89 215l-182 539h58l145 -469h2l147 469h50z" />
    <glyph glyph-name="dotlessi" unicode="&#x131;" horiz-adv-x="207" 
d="M130 0h-53v539h53v-539z" />
    <glyph glyph-name="Lslash" unicode="&#x141;" horiz-adv-x="406" 
d="M377 0h-279v437l-67 -36v31l67 35v221h57v-197l74 39v-29l-74 -39v-423h222v-39z" />
    <glyph glyph-name="lslash" unicode="&#x142;" horiz-adv-x="273" 
d="M238 501l-74 -39v-462h-54v440l-75 -41v34l75 38v314h54v-292l74 39v-31z" />
    <glyph glyph-name="OE" unicode="&#x152;" horiz-adv-x="756" 
d="M709 0h-299q-32 -10 -83 -10q-133 0 -200.5 99t-67.5 255t67.5 255t200.5 99q46 0 83 -10h299v-39h-245v-272h224v-39h-224v-298h245v-40zM410 36v617q-33 10 -83 10t-89 -21.5t-61 -54.5t-36 -77.5t-18.5 -84t-4.5 -81.5q0 -54 8.5 -103.5t29.5 -100.5t65 -81.5
t106 -30.5q57 0 83 8z" />
    <glyph glyph-name="oe" unicode="&#x153;" horiz-adv-x="836" 
d="M781 293l-344 -37q18 -226 184 -226q70 0 125 32l17 -36q-57 -36 -146 -36q-138 0 -197 139q-45 -139 -168 -139q-100 0 -148.5 76.5t-48.5 202.5q0 127 48.5 203.5t148.5 76.5q59 0 97.5 -29t68.5 -95q54 124 170 124q92 0 141.5 -60t51.5 -196zM726 320q0 194 -139 194
q-68 0 -109.5 -57t-41.5 -170zM395 269q0 45 -4.5 80t-17.5 76.5t-43.5 65t-77.5 23.5q-143 0 -143 -245q0 -41 5.5 -77.5t19.5 -76.5t44.5 -63.5t73.5 -23.5q143 0 143 241z" />
    <glyph glyph-name="Scaron" unicode="&#x160;" horiz-adv-x="456" 
d="M349 854l-96 -98q-12 -13 -29 -13q-15 0 -27 13l-96 98l17 13l108 -80l106 80zM396 188q0 -88 -55.5 -143t-141.5 -55q-93 0 -150 37l18 40q51 -33 124 -33q67 0 107.5 41.5t40.5 110.5q0 52 -30.5 86t-102.5 61q-150 56 -150 182q0 76 50 129.5t132 53.5q81 0 131 -36
l-16 -37q-50 33 -112 33q-61 0 -95 -38.5t-34 -103.5q0 -55 33.5 -86t91.5 -53q159 -58 159 -189z" />
    <glyph glyph-name="scaron" unicode="&#x161;" horiz-adv-x="393" 
d="M319 714l-96 -98q-12 -13 -28 -13q-15 0 -28 13l-96 98l17 13l108 -80l106 80zM340 144q0 -59 -48 -105.5t-120 -46.5q-81 0 -129 36l16 38q38 -32 110 -32q52 0 84.5 31.5t32.5 78.5q0 46 -24 71.5t-76 44.5q-74 27 -101 65t-27 86q0 57 42 98t109 41q69 0 113 -36
l-16 -35q-43 32 -94 32q-49 0 -76.5 -28.5t-27.5 -71.5q0 -42 25.5 -66t74.5 -42q132 -47 132 -159z" />
    <glyph glyph-name="Ydieresis" unicode="&#x178;" horiz-adv-x="484" 
d="M353 798q0 -14 -10 -24t-24 -10t-23.5 10t-9.5 24t10 24t23 10q14 0 24 -10t10 -24zM203 798q0 -14 -9.5 -24t-23.5 -10t-24 10t-10 24t10 24t24 10q13 0 23 -10t10 -24zM462 688l-191 -375v-313h-56v313l-190 375h63l156 -337h2l161 337h55z" />
    <glyph glyph-name="Zcaron" unicode="&#x17d;" horiz-adv-x="414" 
d="M327 854l-96 -98q-12 -13 -29 -13q-15 0 -27 13l-96 98l17 13l108 -80l106 80zM381 0h-353l272 649h-260v39h332l-270 -649h279v-39z" />
    <glyph glyph-name="zcaron" unicode="&#x17e;" horiz-adv-x="406" 
d="M322 714l-96 -98q-12 -13 -29 -13q-15 0 -27 13l-96 98l17 13l108 -80l106 80zM363 0h-330l248 507h-232v32h304l-246 -507h256v-32z" />
    <glyph glyph-name="florin" unicode="&#x192;" horiz-adv-x="542" 
d="M492 687l-9 -35q-21 6 -48 6q-28 0 -49 -15.5t-32.5 -42t-18 -51t-12.5 -54.5q0 -4 -0.5 -6.5t-1.5 -5.5l-14 -73h113v-31h-119l-70 -375q-8 -43 -18 -75.5t-29 -70.5t-51 -59t-74 -21q-24 0 -44 6l7 39q20 -4 32 -4q54 0 81 47.5t47 155.5l67 357h-111v30h116l14 76
q19 105 54 158.5t111 53.5q33 0 59 -10z" />
    <glyph glyph-name="circumflex" unicode="&#x2c6;" horiz-adv-x="170" 
d="M209 616l-17 -13l-106 80l-108 -80l-17 13l96 98q12 13 27 13q17 0 29 -13z" />
    <glyph glyph-name="caron" unicode="&#x2c7;" horiz-adv-x="170" 
d="M209 714l-96 -98q-12 -13 -29 -13q-15 0 -27 13l-96 98l17 13l108 -80l106 80z" />
    <glyph glyph-name="breve" unicode="&#x2d8;" horiz-adv-x="170" 
d="M207 708q0 -37 -32 -72t-91 -35q-58 0 -89.5 34.5t-31.5 72.5l21 10q8 -37 33.5 -58.5t65.5 -21.5q41 0 68.5 21.5t35.5 58.5z" />
    <glyph glyph-name="dotaccent" unicode="&#x2d9;" horiz-adv-x="170" 
d="M121 690q0 -15 -10.5 -25.5t-25.5 -10.5t-25.5 10.5t-10.5 25.5t10.5 25.5t25.5 10.5t25.5 -10.5t10.5 -25.5z" />
    <glyph glyph-name="ring" unicode="&#x2da;" horiz-adv-x="170" 
d="M161 676q0 -32 -22.5 -54t-53.5 -22q-32 0 -54.5 22t-22.5 54t22.5 54.5t54.5 22.5t54 -22.5t22 -54.5zM134 676q0 21 -14.5 35.5t-34.5 14.5q-21 0 -35.5 -14.5t-14.5 -35.5q0 -20 14.5 -34.5t35.5 -14.5q20 0 34.5 14.5t14.5 34.5z" />
    <glyph glyph-name="ogonek" unicode="&#x2db;" horiz-adv-x="170" 
d="M220 -147q-69 -27 -124 -17.5t-55 47.5q0 34 20 60t84 62h51q-62 -36 -83 -58t-21 -52q0 -23 36 -28.5t87 12.5z" />
    <glyph glyph-name="tilde" unicode="&#x2dc;" horiz-adv-x="170" 
d="M217 669q-8 -22 -21.5 -34.5t-41.5 -16.5q-28 -5 -68 16.5t-63 19.5q-32 -3 -47 -41l-23 25q9 23 23.5 36.5t42.5 16.5q29 3 66 -19t60 -19q35 5 47 42z" />
    <glyph glyph-name="hungarumlaut" unicode="&#x2dd;" horiz-adv-x="170" 
d="M239 725l-123 -127h-32l92 126q14 14 42 14q21 0 21 -13zM115 725l-123 -127h-32l92 126q16 14 43 14q12 0 16.5 -3t3.5 -10z" />
    <glyph glyph-name="Delta" unicode="&#x394;" horiz-adv-x="559" 
d="M539 0h-519l238 688h44zM467 40l-164 510l-22 78h-2q-11 -37 -24 -77l-168 -511h380z" />
    <glyph glyph-name="Omega" unicode="&#x3a9;" horiz-adv-x="630" 
d="M580 0h-219q71 67 110.5 170.5t39.5 211.5q0 277 -196 277q-104 0 -150 -75.5t-46 -201.5q0 -108 39.5 -210.5t110.5 -171.5h-219v39h141q-54 60 -91 155t-37 187q0 148 64.5 232.5t187.5 84.5t188 -84.5t65 -232.5q0 -90 -36.5 -185.5t-89.5 -156.5h138v-39z" />
    <glyph glyph-name="pi" unicode="&#x3c0;" horiz-adv-x="624" 
d="M565 0q-37 -2 -62.5 7.5t-38 22.5t-19 36.5t-7.5 37.5t-1 38v359h-250v-501h-54v501h-74v38h506v-38h-74v-360q0 -24 2 -38.5t8.5 -32t22.5 -25.5t41 -8v-37z" />
    <glyph glyph-name="endash" unicode="&#x2013;" horiz-adv-x="390" 
d="M390 313h-390v45h390v-45z" />
    <glyph glyph-name="emdash" unicode="&#x2014;" horiz-adv-x="780" 
d="M780 316h-780v39h780v-39z" />
    <glyph glyph-name="quoteleft" unicode="&#x2018;" horiz-adv-x="241" 
d="M196 785l-75 -226q-12 -15 -39 -15q-17 0 -22 15l107 226h29z" />
    <glyph glyph-name="quoteright" unicode="&#x2019;" horiz-adv-x="241" 
d="M181 773l-107 -226h-29l75 226q13 15 40 15q16 0 21 -15z" />
    <glyph glyph-name="quotesinglbase" unicode="&#x201a;" horiz-adv-x="241" 
d="M181 57l-107 -226h-29l75 226q15 15 40 15q16 0 21 -15z" />
    <glyph glyph-name="quotedblleft" unicode="&#x201c;" horiz-adv-x="395" 
d="M350 785l-75 -226q-12 -15 -39 -15q-17 0 -22 15l107 226h29zM196 785l-75 -226q-12 -15 -39 -15q-17 0 -22 15l107 226h29z" />
    <glyph glyph-name="quotedblright" unicode="&#x201d;" horiz-adv-x="395" 
d="M335 773l-107 -226h-29l75 226q13 15 40 15q16 0 21 -15zM181 773l-107 -226h-29l75 226q13 15 40 15q16 0 21 -15z" />
    <glyph glyph-name="quotedblbase" unicode="&#x201e;" horiz-adv-x="395" 
d="M335 57l-107 -226h-29l75 226q15 15 40 15q16 0 21 -15zM181 57l-107 -226h-29l75 226q15 15 40 15q16 0 21 -15z" />
    <glyph glyph-name="dagger" unicode="&#x2020;" horiz-adv-x="528" 
d="M473 491l-190 6l8 -712h-56l8 712l-188 -6v51l188 -6l-8 249h56l-8 -249l190 6v-51z" />
    <glyph glyph-name="daggerdbl" unicode="&#x2021;" horiz-adv-x="528" 
d="M473 57l-189 6l7 -278h-55l8 278l-189 -6v51l189 -6l-2 194l2 202l-189 -6v51l189 -6l-8 248h55l-7 -248l189 6v-51l-189 6l2 -201l-2 -195l189 6v-51z" />
    <glyph glyph-name="bullet" unicode="&#x2022;" horiz-adv-x="290" 
d="M215 353q0 -29 -20.5 -49.5t-49.5 -20.5t-49.5 20.5t-20.5 49.5t20.5 49.5t49.5 20.5t49.5 -20.5t20.5 -49.5z" />
    <glyph glyph-name="ellipsis" unicode="&#x2026;" horiz-adv-x="792" 
d="M702 40q0 -18 -12.5 -30.5t-29.5 -12.5t-29.5 12.5t-12.5 29.5q0 18 12.5 30.5t29.5 12.5t29.5 -12.5t12.5 -29.5zM438 40q0 -18 -12.5 -30.5t-29.5 -12.5t-29.5 12.5t-12.5 29.5q0 18 12.5 30.5t29.5 12.5t29.5 -12.5t12.5 -29.5zM174 40q0 -18 -12.5 -30.5t-29.5 -12.5
t-29.5 12.5t-12.5 29.5q0 18 12.5 30.5t29.5 12.5t29.5 -12.5t12.5 -29.5z" />
    <glyph glyph-name="perthousand" unicode="&#x2030;" horiz-adv-x="1171" 
d="M1096 224q2 -235 -126 -235t-126 235q0 233 126 233q124 0 126 -233zM762 224q2 -235 -126 -235q-127 0 -125 235q0 233 125 233q126 0 126 -233zM549 684l-232 -691l-32 11l233 690zM327 466q0 -235 -126 -235t-126 235q0 233 126 233t126 -233zM1056 224q3 207 -86 207
q-88 0 -85 -207q0 -205 85 -205q28 0 46.5 19.5t26.5 55.5t10.5 63.5t2.5 66.5zM722 224q3 207 -86 207q-88 0 -85 -207q0 -39 2.5 -66.5t10.5 -63.5t26 -55.5t46 -19.5t46.5 19.5t26.5 55.5t10.5 63.5t2.5 66.5zM286 466q3 208 -85 208q-86 0 -86 -208q0 -204 86 -204
q85 0 85 204z" />
    <glyph glyph-name="guilsinglleft" unicode="&#x2039;" horiz-adv-x="330" 
d="M250 148l-28 -22l-152 208l152 208l28 -22l-132 -186z" />
    <glyph glyph-name="guilsinglright" unicode="&#x203a;" horiz-adv-x="330" 
d="M260 334l-152 -208l-28 22l132 186l-132 186l28 22z" />
    <glyph glyph-name="fraction" unicode="&#x2044;" horiz-adv-x="149" 
d="M264 679l-342 -689l-37 19l341 687z" />
    <glyph glyph-name="trademark" unicode="&#x2122;" horiz-adv-x="783" 
d="M704 339h-36l-38 324l-100 -324h-38l-100 324l-36 -324h-38l42 349h60l92 -318l91 318h59zM286 659h-99v-320h-37v320h-100v29h236v-29z" />
    <glyph glyph-name="partialdiff" unicode="&#x2202;" 
d="M450 331q0 -67 -14 -126.5t-42 -108t-75 -77t-108 -28.5q-76 0 -116 48t-40 120q0 76 40.5 139.5t116 93.5t184.5 -4q-8 100 -68 171.5t-137 98.5l13 35q33 -11 63.5 -28.5t65 -48t59.5 -68.5t41.5 -94.5t16.5 -122.5zM399 355q-132 42 -212 -17.5t-80 -172.5
q0 -64 28 -99t83 -35q91 0 136 89.5t45 234.5z" />
    <glyph glyph-name="product" unicode="&#x220f;" horiz-adv-x="836" 
d="M771 343q0 -146 -103.5 -249t-249.5 -103t-249.5 103t-103.5 249t103.5 249.5t249.5 103.5t249.5 -103.5t103.5 -249.5zM737 343q0 132 -93.5 225.5t-225.5 93.5t-225.5 -93.5t-93.5 -225.5t93.5 -225t225.5 -93t225.5 93t93.5 225zM556 440q0 -70 -52.5 -101.5
t-140.5 -19.5v-199h-38v430q40 19 97 19q53 0 93.5 -31t40.5 -98zM517 441q0 53 -29.5 74.5t-71.5 21.5q-26 0 -53 -9v-179q71 -8 112.5 15t41.5 77z" />
    <glyph glyph-name="summation" unicode="&#x2211;" 
d="M459 -215h-396l239 491l-240 412h388v-41h-306l214 -361l-218 -454h319v-47z" />
    <glyph glyph-name="minus" unicode="&#x2212;" 
d="M442 314l-374 -1v41h374v-40z" />
    <glyph glyph-name="radical" unicode="&#x221a;" 
d="M474 785l-173 -785h-51l-139 475h-81v28h130l114 -435h2l150 717h48z" />
    <glyph glyph-name="infinity" unicode="&#x221e;" horiz-adv-x="860" 
d="M780 339q0 -68 -44.5 -113t-111.5 -45q-57 0 -99 29t-97 101q-54 -73 -94.5 -101.5t-97.5 -28.5q-67 0 -111.5 45.5t-44.5 112.5q0 68 44.5 113.5t111.5 45.5q54 0 95 -28.5t101 -100.5q34 42 50 59.5t40 37.5t47 26t55 6q67 0 111.5 -45.5t44.5 -113.5zM744 339
q0 51 -35 86t-85 35q-49 0 -82 -24.5t-88 -94.5q53 -67 88 -94.5t82 -27.5q51 0 85.5 34.5t34.5 85.5zM407 339q-58 68 -93 94.5t-78 26.5q-51 0 -85.5 -34.5t-34.5 -86.5q0 -51 34.5 -85.5t85.5 -34.5q48 0 84 26.5t87 93.5z" />
    <glyph glyph-name="integral" unicode="&#x222b;" 
d="M394 748q-46 0 -79 -27.5t-33 -85.5v-691q0 -71 -44.5 -115t-121.5 -44v37q46 0 80 27.5t34 84.5v692q0 71 43.5 115t120.5 44v-37z" />
    <glyph glyph-name="approxequal" unicode="&#x2248;" 
d="M442 411q-38 -51 -105 -51q-31 0 -85.5 35t-88.5 35q-54 0 -95 -45v39q39 46 95 46q34 0 89.5 -35t84.5 -35q58 0 105 49v-38zM442 245q-38 -51 -105 -51q-31 0 -85.5 35t-88.5 35q-54 0 -95 -45v39q39 46 95 46q34 0 89.5 -35t84.5 -35q58 0 105 49v-38z" />
    <glyph glyph-name="notequal" unicode="&#x2260;" 
d="M442 234h-230l-72 -116l-28 19l61 96h-105v41h130l76 121h-206v41h231l68 108l28 -18l-56 -90h103v-40h-128l-77 -122h205v-40z" />
    <glyph glyph-name="lessequal" unicode="&#x2264;" 
d="M442 230l-374 148v40l374 149v-45l-327 -124l327 -124v-44zM442 118h-374v40h374v-40z" />
    <glyph glyph-name="greaterequal" unicode="&#x2265;" 
d="M442 379l-374 -149v44l327 124l-327 124v45l374 -148v-40zM442 117l-374 1v40h374v-41z" />
    <glyph glyph-name="lozenge" unicode="&#x25ca;" horiz-adv-x="645" 
d="M590 344l-267 -339l-268 339l268 339zM535 335l-219 278l-205 -261l219 -277z" />
    <glyph glyph-name="fi" unicode="&#xfb01;" horiz-adv-x="487" 
d="M410 690q0 -14 -10 -24t-24 -10t-24 10t-10 24t10 24t24 10t24 -10t10 -24zM403 0h-54v539h54v-539zM260 508h-100v-508h-54v507h-63v32h63v86q0 72 39.5 116t114.5 44v-34q-100 -9 -100 -117v-95h100v-31z" />
    <glyph glyph-name="fl" unicode="&#xfb02;" horiz-adv-x="494" 
d="M409 0h-54v785h54v-785zM260 508h-100v-508h-54v507h-63v32h63v86q0 72 39.5 116t114.5 44v-34q-100 -9 -100 -117v-95h100v-31z" />
    </font>
</defs>
</svg>
